Prometheus 2012 Bonus BR EAC3 VFF VFQ ENG 1080p x265 10Bits T0M (Alien 5)

seeders: 7
leechers: 4
updated:
Added by T0M4 in Movies > HEVC/x265

Download Fast Safe Anonymous
movies, software, shows...
Summary:

A team of explorers discover a clue to the origins of mankind on Earth, leading them on a journey to the darkest corners of the universe. There, they must fight a terrifying battle to save the future of the human race.

Files

Prometheus 2012 Bonus BR EAC3 VFF VFQ VO 1080p x265 10Bits T0M
  • Prometheus 2012 Bonus VOSTFR.mkv (105.4 MB)
  • Prometheus 2012 Bonus.sfv (0.2 KB)
  • Prometheus 2012 BR EAC3 VFF VFQ VO 1080p x265 10Bits T0M.mkv (4.3 GB)
  • Prometheus 2012 Delete scenes VOSTFR.mkv (259.6 MB)

Description


______________________________________________________________________________________________________________
Prometheus 2012
Bluray · 1080p x265 10bits · DD+ 5.1 VFF VFQ ENG
More Bonus
¯¯¯¯¯¯¯¯¯¯¯¯¯¯¯¯¯¯¯¯¯¯¯¯¯¯¯¯¯¯¯¯¯¯¯¯¯¯¯¯¯¯¯¯¯¯¯¯¯¯¯¯¯¯¯¯¯¯¯¯¯¯¯¯¯¯¯¯¯¯¯¯¯¯¯¯¯¯¯¯



Year : 2012
Country : United States
Original, French and English Title : Prometheus
Director : Ridley Scott
Music from : Marc Streitenfeld
Acteurs : Noomi Rapace, Michael Fassbender, Charlize Theron, Guy Pearce, Idris Elba, Logan Marshall-Green, Sean Harris, Rafe Spall
Genre : Sci-Fi, Adventure, Thriller
Certificate : Not recommended for children under 12 years old
Budget : 130 000 000 $ · Recipe : 441 772 613 $ · ratio : 340 %
Link : Allociné 3,3 /5 · IMDB 7,0 /10 · TMDB 64 % · SensCritique 5,6 /10 · Wiki · Bande Annonce

French Plot
A la fin du XXIe siècle , une équipe d’explorateurs découvre un indice sur l'origine de l’humanité sur Terre.
Cette découverte les entraîne dans un voyage fascinant jusqu’aux recoins les plus sombres de l’univers

Bonus
Delete scenes - 18 mn - 105,0 Mib - 1920x1080 HEVC 10Bits - VOSTFR - b2e53b35
Bonus - 36 mn - 260,0 Mib - 1920x1080 HEVC 10Bits - VOSTFR - b2e53b35
2 bonus, total 365,0 Mib 55 mn

Saga
Alien 1 : Alien ( Theatrical 1979 / Director's Cut 2003 )
Alien 2 : Aliens ( Theatrical 1986 / Extended 1991 )
Alien 3 : Alien³ ( Theatrical 1992 / Special Edition 2003 )
Alien 4 : Alien Resurrection ( Theatrical 1997 / Extended 2003 )
Alien 5 : Prometheus 2012 + Bonus
Alien 6 : Alien Covenant 2017 + Bonus


If you enjoy and wish to support, please stay in seeding

Technical Details
¯¯¯¯¯¯¯¯¯¯¯¯¯¯¯¯¯¯¯¯¯¯¯¯¯¯¯¯¯¯¯¯¯¯¯¯¯¯¯¯¯¯¯¯¯¯¯¯¯¯¯¯¯¯¯¯¯¯¯¯¯¯¯¯¯¯¯¯¯¯¯¯¯¯¯¯¯¯¯¯¯¯¯¯¯¯¯¯¯¯¯¯¯¯¯¯¯¯¯¯
Media
Matroska 4,25 Gio 2 h03 mn 4921 Kbps, Total 4,61 Gio 2 h58 mn
Video
HEVC/H265 1920 x800 @23.976 [email protected]@Main 10 bits 3499 Kbps VerySlow
Audio
True French 5.1 EAC3 448 Kbps 48KHz 16bits
Quebec French 5.1 EAC3 448 Kbps 48KHz 16bits
English (OV) 5.1 EAC3 448 Kbps 48KHz 16bits
Subtitles
True French forced SRT
True French full SRT
True French full PGS
Commentary du réalisateur Ridley Scott PGS, Commentary du scénariste Jon Spaihts PGS, English full PGS
Chapters
International
Screenshot

Origin
Bluray : Video AVC 1080p 28979 Kbps, VFF 5.1 DTS 768 Kbps, VFQ 5.1 AC3 640 bps, Anglais 7.1 DTS-HDMA 4984 Kbps

NFO
¯¯¯¯¯¯¯¯¯¯¯¯¯¯¯¯¯¯¯¯¯¯¯¯¯¯¯¯¯¯¯¯¯¯¯¯¯¯¯¯¯¯¯¯¯¯¯¯¯¯¯¯¯¯¯¯¯¯¯¯¯¯¯¯¯¯¯¯¯¯¯¯¯¯¯¯¯¯¯¯¯¯¯¯¯¯¯¯¯¯¯¯¯¯¯¯¯¯¯¯


General
Format : Matroska
Format version : Version 4 / Version 2
File size : 4.25 GiB
Duration : 2 h 3 min
Overall bit rate : 4 921 kb/s
Movie name : Prometheus 2012 de Ridley Scott avec Noomi Rapace, Michael Fassbender, Charlize Theron, Guy Pearce, Idris Elba, Logan Marshall-Green, Sean Harris, Rafe Spall. -12 (allocine=141564,imdb=tt1446714)
Encoded date : UTC 2017-08-22 01:30:40
Writing application : mkvmerge v8.0.0 ('Til The Day That I Die') 64bit
Writing library : libebml v1.3.1 + libmatroska v1.4.2
Cover : Yes
Attachments : Cover.jpg / Poster.jpg / Prometheus 2012.jpg / Rapace.jpg

Video
ID : 1
Format : HEVC
Format/Info : High Efficiency Video Coding
Format profile : Main [email protected]@Main
Codec ID : V_MPEGH/ISO/HEVC
Duration : 2 h 3 min
Bit rate : 3 499 kb/s
Width : 1 920 pixels
Height : 800 pixels
Display aspect ratio : 2.40:1
Frame rate mode : Constant
Frame rate : 23.976 (24000/1001) FPS
Color space : YUV
Chroma subsampling : 4:2:0
Bit depth : 10 bits
Bits/(Pixel*Frame) : 0.095
Stream size : 3.03 GiB (71%)
Title : Video HEVC 1920x800 @23.976 x265 [email protected]@Main 10bits veryslow 1786mn
Writing library : x265 1.9:[Windows][GCC 4.9.2][64 bit] 10bit
Encoding settings : wpp / ctu=64 / min-cu-size=8 / max-tu-size=32 / tu-intra-depth=3 / tu-inter-depth=3 / me=3 / subme=4 / merange=57 / rect / amp / max-merge=4 / temporal-mvp / no-early-skip / rdpenalty=0 / no-tskip / no-tskip-fast / strong-intra-smoothing / no-lossless / no-cu-lossless / no-constrained-intra / no-fast-intra / open-gop / no-temporal-layers / interlace=0 / keyint=240 / min-keyint=24 / scenecut=40 / rc-lookahead=40 / lookahead-slices=0 / bframes=8 / bframe-bias=0 / b-adapt=2 / ref=5 / limit-refs=1 / limit-modes / weightp / weightb / aq-mode=1 / qg-size=32 / aq-strength=1.00 / cbqpoffs=0 / crqpoffs=0 / rd=6 / psy-rd=2.00 / rdoq-level=2 / psy-rdoq=1.00 / signhide / deblock / sao / no-sao-non-deblock / b-pyramid / cutree / no-intra-refresh / rc=crf / crf=18.3 / qcomp=0.60 / qpmin=0 / qpmax=51 / qpstep=4 / ipratio=1.40 / pbratio=1.30
Default : Yes
Forced : No
Color range : Limited
Color primaries : BT.709
Transfer characteristics : BT.709
Matrix coefficients : BT.709

Audio #1
ID : 2
Format : E-AC-3
Format/Info : Enhanced Audio Coding 3
Format settings, Endianness : Big
Codec ID : A_EAC3
Duration : 2 h 3 min
Bit rate mode : Constant
Bit rate : 448 kb/s
Channel(s) : 6 channels
Channel positions : Front: L C R, Side: L R, LFE
Sampling rate : 48.0 kHz
Frame rate : 187.500 FPS (256 spf)
Compression mode : Lossy
Delay relative to video : -5 ms
Stream size : 397 MiB (9%)
Title : Français 5.1 EAC3 448kbps 48khz 16bits
Language : French
Service kind : Complete Main
Default : Yes
Forced : No

Audio #2
ID : 3
Format : E-AC-3
Format/Info : Enhanced Audio Coding 3
Format settings, Endianness : Big
Codec ID : A_EAC3
Duration : 2 h 3 min
Bit rate mode : Constant
Bit rate : 448 kb/s
Channel(s) : 6 channels
Channel positions : Front: L C R, Side: L R, LFE
Sampling rate : 48.0 kHz
Frame rate : 187.500 FPS (256 spf)
Compression mode : Lossy
Delay relative to video : -5 ms
Stream size : 397 MiB (9%)
Title : Québécois 5.1 EAC3 448kbps 48khz 16bits
Language : French
Service kind : Complete Main
Default : No
Forced : No

Audio #3
ID : 4
Format : E-AC-3
Format/Info : Enhanced Audio Coding 3
Format settings, Endianness : Big
Codec ID : A_EAC3
Duration : 2 h 3 min
Bit rate mode : Constant
Bit rate : 448 kb/s
Channel(s) : 6 channels
Channel positions : Front: L C R, Side: L R, LFE
Sampling rate : 48.0 kHz
Frame rate : 187.500 FPS (256 spf)
Compression mode : Lossy
Delay relative to video : -5 ms
Stream size : 397 MiB (9%)
Title : English 5.1 EAC3 448kbps 48khz 16bits
Language : English
Service kind : Complete Main
Default : No
Forced : No

Text #1
ID : 5
Format : UTF-8
Codec ID : S_TEXT/UTF8
Codec ID/Info : UTF-8 Plain Text
Duration : 2 h 3 min
Bit rate : 0 b/s
Count of elements : 21
Stream size : 739 Bytes (0%)
Title : Français forcé (Passages)
Language : French
Default : Yes
Forced : Yes

Text #2
ID : 6
Format : UTF-8
Codec ID : S_TEXT/UTF8
Codec ID/Info : UTF-8 Plain Text
Duration : 2 h 3 min
Bit rate : 33 b/s
Count of elements : 1214
Stream size : 30.2 KiB (0%)
Title : Français complet (Tous le film)
Language : French
Default : No
Forced : No

Text #3
ID : 7
Format : PGS
Muxing mode : zlib
Codec ID : S_HDMV/PGS
Codec ID/Info : Picture based subtitle format used on BDs/HD-DVDs
Duration : 1 h 58 min
Bit rate : 8 923 b/s
Count of elements : 2418
Stream size : 7.54 MiB (0%)
Title : Français complet (Tous le film) PGS
Language : French
Default : No
Forced : No

Text #4
ID : 8
Format : PGS
Muxing mode : zlib
Codec ID : S_HDMV/PGS
Codec ID/Info : Picture based subtitle format used on BDs/HD-DVDs
Duration : 2 h 3 min
Bit rate : 21.7 kb/s
Count of elements : 3756
Stream size : 19.2 MiB (0%)
Title : Commentaire du réalisateur Ridley Scott PGS
Language : French
Default : No
Forced : No

Text #5
ID : 9
Format : PGS
Muxing mode : zlib
Codec ID : S_HDMV/PGS
Codec ID/Info : Picture based subtitle format used on BDs/HD-DVDs
Duration : 2 h 3 min
Bit rate : 28.0 kb/s
Count of elements : 4100
Stream size : 24.8 MiB (1%)
Title : Commentaire du scénariste Jon Spaihts PGS
Language : French
Default : No
Forced : No

Text #6
ID : 10
Format : PGS
Muxing mode : zlib
Codec ID : S_HDMV/PGS
Codec ID/Info : Picture based subtitle format used on BDs/HD-DVDs
Duration : 1 h 58 min
Bit rate : 10.9 kb/s
Count of elements : 2842
Stream size : 9.25 MiB (0%)
Title : English full (All the movie) PGS
Language : English
Default : No
Forced : No

Menu
00:00:00.000 : :01 - 00:00:00
00:05:13.146 : :02 - 00:05:13
00:07:44.881 : :03 - 00:07:44
00:11:31.524 : :04 - 00:11:31
00:15:09.783 : :05 - 00:15:09
00:20:04.912 : :06 - 00:20:04
00:22:32.809 : :07 - 00:22:32
00:27:43.119 : :08 - 00:27:43
00:31:57.832 : :09 - 00:31:57
00:34:10.840 : :10 - 00:34:10
00:37:53.229 : :11 - 00:37:53
00:40:45.359 : :12 - 00:40:45
00:45:49.329 : :13 - 00:45:49
00:48:47.925 : :14 - 00:48:47
00:50:23.061 : :15 - 00:50:23
00:53:56.399 : :16 - 00:53:56
00:56:32.222 : :17 - 00:56:32
00:59:31.609 : :18 - 00:59:31
01:01:29.185 : :19 - 01:01:29
01:04:17.562 : :20 - 01:04:17
01:06:01.457 : :21 - 01:06:01
01:08:57.883 : :22 - 01:08:57
01:11:13.519 : :23 - 01:11:13
01:15:10.631 : :24 - 01:15:10
01:17:06.038 : :25 - 01:17:06
01:25:02.305 : :26 - 01:25:02
01:27:09.349 : :27 - 01:27:09
01:30:10.363 : :28 - 01:30:10
01:32:43.724 : :29 - 01:32:43
01:35:23.134 : :30 - 01:35:23
01:37:46.861 : :31 - 01:37:46
01:40:46.373 : :32 - 01:40:46
01:43:46.220 : :33 - 01:43:46
01:48:28.793 : :34 - 01:48:28
01:52:08.096 : :35 - 01:52:08
01:58:06.287 : :36 - 01:58:06

Related Torrents

torrent name size uploader age seed leech
1.8 GB YIFY 7
years
251 26
801.2 MB YIFY 7
years
95 18
1 GB rock3 2
years
47 28
473.4 MB g3m696 12
months
27 1
1.4 GB maximersk 7
years
20 2


Download torrent
4.6 GB
seeders:7
leechers:4
Prometheus 2012 Bonus BR EAC3 VFF VFQ ENG 1080p x265 10Bits T0M (Alien 5)


Trackers

tracker name
udp://tracker.opentrackr.org:1337/announce
http://tracker3.itzmx.com:8080/announce
udp://tracker.coppersurfer.tk:6969/announce
udp://tracker.cyberia.is:6969/announce
udp://tracker.tiny-vps.com:6969/announce
udp://opentor.org:2710
udp://tracker.ds.is:6969/announce
udp://ipv4.tracker.harry.lu:80/announce
udp://tracker.leechers-paradise.org:6969
udp://tracker.moeking.me:6969/announce
udp://tracker.uw0.xyz:6969/announce
http://explodie.org:6969/announce
udp://retracker.lanta-net.ru:2710/announce
http://jsb.by:8000/announce
http://retracker.sevstar.net:2710/announce
µTorrent compatible trackers list

Download torrent
4.6 GB
seeders:7
leechers:4
Prometheus 2012 Bonus BR EAC3 VFF VFQ ENG 1080p x265 10Bits T0M (Alien 5)


Torrent hash: 4BDB5138512CA3B40B7127B5882A9E33FAFF3D1B