Hitler.The.Rise.and.Fall.S01.WEBRip.x264-ION10

seeders: 146
leechers: 34
updated:
Added by prudence25 in TV > SD

Download Fast Safe Anonymous
movies, software, shows...

Files

Hitler.The.Rise.and.Fall.S01.WEBRip.x264-ION10
  • Hitler.The.Rise.and.Fall.S01E01.WEBRip.x264-ION10.mp4 (450.9 MB)
  • Hitler.The.Rise.and.Fall.S01E02.WEBRip.x264-ION10.mp4 (448.4 MB)
  • Hitler.The.Rise.and.Fall.S01E03.WEBRip.x264-ION10.mp4 (447.1 MB)
  • Hitler.The.Rise.and.Fall.S01E04.WEBRip.x264-ION10.mp4 (452.1 MB)
  • Hitler.The.Rise.and.Fall.S01E05.WEBRip.x264-ION10.mp4 (446.0 MB)
  • Hitler.The.Rise.and.Fall.S01E06.WEBRip.x264-ION10.mp4 (445.3 MB)
  • RARBG.txt (0.0 KB)

Description





https://www.imdb.com/title/tt6118330/



Code:

Video
ID : 1
Format : AVC
Format/Info : Advanced Video Codec
Format profile : [email protected]
Format settings : CABAC / 5 Ref Frames
Format settings, CABAC : Yes
Format settings, Reference frames : 5 frames
Codec ID : avc1
Codec ID/Info : Advanced Video Coding
Duration : 46 min 17 s
Bit rate : 1 100 kb/s
Width : 720 pixels
Height : 400 pixels
Display aspect ratio : 16:9
Frame rate mode : Constant
Frame rate : 25.000 FPS
Color space : YUV
Chroma subsampling : 4:2:0
Bit depth : 8 bits
Scan type : Progressive
Bits/(Pixel*Frame) : 0.153
Stream size : 365 MiB (81%)
Title : Hitler.The.Rise.and.Fall.S01E04.WEBRip.x264-ION10
Writing library : x264 core 148 r2795M aaa9aa8
Encoding settings : cabac=1 / ref=5 / deblock=1:-1:-1 / analyse=0x3:0x113 / me=umh / subme=9 / psy=1 / psy_rd=1.00:0.15 / mixed_ref=1 / me_range=16 / chroma_me=1 / trellis=2 / 8x8dct=1 / cqm=0 / deadzone=21,11 / fast_pskip=1 / chroma_qp_offset=-3 / threads=24 / lookahead_threads=2 / sliced_threads=0 / nr=0 / decimate=1 / interlaced=0 / bluray_compat=0 / constrained_intra=0 / bframes=3 / b_pyramid=2 / b_adapt=2 / b_bias=0 / direct=3 / weightb=1 / open_gop=0 / weightp=2 / keyint=250 / keyint_min=25 / scenecut=40 / intra_refresh=0 / rc_lookahead=50 / rc=abr / mbtree=1 / bitrate=1100 / ratetol=1.0 / qcomp=0.60 / qpmin=0 / qpmax=69 / qpstep=4 / ip_ratio=1.40 / aq=1:1.00
Encoded date : UTC 2021-01-11 18:31:21
Tagged date : UTC 2021-01-11 18:31:21
Codec configuration box : avcC

Audio
ID : 2
Format : AAC LC
Format/Info : Advanced Audio Codec Low Complexity
Codec ID : mp4a-40-2
Duration : 46 min 17 s
Duration_LastFrame : -11 ms
Bit rate mode : Constant
Bit rate : 256 kb/s
Channel(s) : 2 channels
Channel layout : L R
Sampling rate : 48.0 kHz
Frame rate : 46.875 FPS (1024 SPF)
Compression mode : Lossy
Stream size : 84.8 MiB (19%)
Title : Hitler.The.Rise.and.Fall.S01E04.WEBRip.x264-ION10
Language : English
Default : Yes
Alternate group : 1
Encoded date : UTC 2021-01-11 18:31:21
Tagged date : UTC 2021-01-11 18:31:21












Download torrent
2.6 GB
seeders:146
leechers:34
Hitler.The.Rise.and.Fall.S01.WEBRip.x264-ION10


Trackers

tracker name
http://tracker.trackerfix.com:80/announce
udp://9.rarbg.me:2970/announce
udp://9.rarbg.to:2790/announce
µTorrent compatible trackers list

Download torrent
2.6 GB
seeders:146
leechers:34
Hitler.The.Rise.and.Fall.S01.WEBRip.x264-ION10


Torrent hash: 2E58DA284C145268B4B0656455591A5ECA9FA7AB