Automata 2014 BR EAC3 VFF VFQ ENG 1080p x265 10Bits T0M (Autómata)

seeders: 13
leechers: 3
updated:
Added by T0M4 in Movies > HEVC/x265

Download Fast Safe Anonymous
movies, software, shows...

Files

  • Automata 2014 BR EAC3 VFF VFQ ENG 1080p x265 10Bits T0M.mkv (3.8 GB)

Description


______________________________________________________________________________________________________________
Autómata 2014
Bluray · 1080p x265 10bits · DD+ 5.1 VFF VFQ ENG
¯¯¯¯¯¯¯¯¯¯¯¯¯¯¯¯¯¯¯¯¯¯¯¯¯¯¯¯¯¯¯¯¯¯¯¯¯¯¯¯¯¯¯¯¯¯¯¯¯¯¯¯¯¯¯¯¯¯¯¯¯¯¯¯¯¯¯¯¯¯¯¯¯¯¯¯¯¯¯¯



Year : 2014
Country : Spain, Bulgaria, United States, Canada
Original and English Title : Autómata
French Title : Automata
Director : Gabe Ibáñez
Music from : Zacarías M. de la Riva
Acteurs : Antonio Banderas, Dylan McDermott, Melanie Griffith, Birgitte Hjort Sørensen, Robert Forster, Christa Campbell
Tim McInnerny, Andy Nyman, David Ryall, Geraldine Somerville
Genre : Sci-Fi, Thriller, Action
Budget : 15 000 000 $ · Recipe : 5 397 140 $ · ratio : 36 %
Link : Allociné 2,8 /5 · IMDB 6,1 /10 · TMDB 56 % · SensCritique 5,9 /10 · Wiki · Bande Annonce

French Plot
Jacq Vaucan , un agent d'assurance de ROC robotics corporation , fait des tests sur des robots. Ce qu'il découvre va avoir de profondes conséquences sur l'avenir de l'humanité.


If you enjoy and wish to support, please stay in seeding

Technical Details
¯¯¯¯¯¯¯¯¯¯¯¯¯¯¯¯¯¯¯¯¯¯¯¯¯¯¯¯¯¯¯¯¯¯¯¯¯¯¯¯¯¯¯¯¯¯¯¯¯¯¯¯¯¯¯¯¯¯¯¯¯¯¯¯¯¯¯¯¯¯¯¯¯¯¯¯¯¯¯¯¯¯¯¯¯¯¯¯¯¯¯¯¯¯¯¯¯¯¯¯
Media
Matroska 3,82 Gio 1 h49 mn 4973 Kbps
Video
HEVC/H265 1920 x816 @23.976 [email protected]@Main 10 bits 3601 Kbps VerySlow qp23,10
Audio
True French 5.1 EAC3 448 Kbps 48KHz 16bits
Quebec French 5.1 EAC3 448 Kbps 48KHz 16bits
English (OV) 5.1 EAC3 448 Kbps 48KHz 16bits
Subtitles
True French forced SRT
True French full SRT
True French forced PGS
True French full PGS
Quebec French forced PGS
Quebec French Sourds&Malentendants PGS
English full SDH PGS
Chapters
International
Screenshot

Origin
Bluray : Video AVC 1080p 33382 Kbps, VFF 5.1 AC3 640 Kbps, VFQ 5.1 MLP-FBA 1634 Kbps, ENG 5.1 MLP-FBA 3537 Kbps

NFO
¯¯¯¯¯¯¯¯¯¯¯¯¯¯¯¯¯¯¯¯¯¯¯¯¯¯¯¯¯¯¯¯¯¯¯¯¯¯¯¯¯¯¯¯¯¯¯¯¯¯¯¯¯¯¯¯¯¯¯¯¯¯¯¯¯¯¯¯¯¯¯¯¯¯¯¯¯¯¯¯¯¯¯¯¯¯¯¯¯¯¯¯¯¯¯¯¯¯¯¯


General
Complete name : Automata 2014 BR EAC3 VFF VFQ ENG 1080p x265 10Bits T0M.mkv
Format : Matroska
Format version : Version 4
File size : 3.82 GiB
Duration : 1 h 49 min
Overall bit rate : 4 973 kb/s
Movie name : Automata (Autómata) 2014 de Gabe Ibáñez avec Antonio Banderas, Dylan McDermott, Melanie Griffith, Birgitte Hjort Sørensen, Robert Forster, Christa Campbell, Tim McInnerny, Andy Nyman, David Ryall, Geraldine Somerville. (allocine=193825,imdb=tt1971325) T0M
Encoded date : UTC 2019-07-03 00:24:36
Writing application : mkvmerge v33.1.0 ('Primrose') 64-bit
Writing library : libebml v1.3.7 + libmatroska v1.5.0
Cover : Yes
Attachments : Cover.jpg

Video
ID : 1
Format : HEVC
Format/Info : High Efficiency Video Coding
Format profile : Main [email protected]@Main
Codec ID : V_MPEGH/ISO/HEVC
Duration : 1 h 49 min
Bit rate : 3 601 kb/s
Width : 1 920 pixels
Height : 816 pixels
Display aspect ratio : 2.35:1
Frame rate mode : Constant
Frame rate : 23.976 (24000/1001) FPS
Color space : YUV
Chroma subsampling : 4:2:0
Bit depth : 10 bits
Bits/(Pixel*Frame) : 0.096
Stream size : 2.77 GiB (72%)
Title : Video HEVC 1920x816 @23.976 x265 [email protected]@Main 10bits 3600kbps 2pass veryslow 1841mn
Writing library : x265 2.9:[Windows][GCC 8.2.0][64 bit] 10bit
Encoding settings : cpuid=1111039 / frame-threads=3 / numa-pools=8 / wpp / no-pmode / no-pme / no-psnr / no-ssim / log-level=2 / input-csp=1 / input-res=1920x816 / interlace=0 / total-frames=0 / level-idc=0 / high-tier=1 / uhd-bd=0 / ref=5 / no-allow-non-conformance / no-repeat-headers / annexb / no-aud / no-hrd / info / hash=0 / no-temporal-layers / open-gop / min-keyint=24 / keyint=240 / gop-lookahead=0 / bframes=8 / b-adapt=2 / b-pyramid / bframe-bias=0 / rc-lookahead=120 / lookahead-slices=0 / scenecut=40 / radl=0 / no-intra-refresh / ctu=64 / min-cu-size=8 / rect / amp / max-tu-size=32 / tu-inter-depth=3 / tu-intra-depth=3 / limit-tu=4 / rdoq-level=2 / dynamic-rd=0.00 / no-ssim-rd / signhide / no-tskip / nr-intra=0 / nr-inter=0 / no-constrained-intra / strong-intra-smoothing / max-merge=4 / limit-refs=1 / limit-modes / me=3 / subme=4 / merange=57 / temporal-mvp / weightp / weightb / no-analyze-src-pics / deblock=0:0 / sao / no-sao-non-deblock / rd=6 / no-early-skip / rskip / no-fast-intra / no-tskip-fast / no-cu-lossless / b-intra / no-splitrd-skip / rdpenalty=0 / psy-rd=2.00 / psy-rdoq=1.00 / no-rd-refine / no-lossless / cbqpoffs=0 / crqpoffs=0 / rc=abr / bitrate=3600 / qcomp=0.60 / qpstep=4 / stats-write=0 / stats-Read=2 / cplxblur=20.0 / qblur=0.5 / ipratio=1.40 / pbratio=1.30 / aq-mode=1 / aq-strength=1.00 / cutree / zone-count=0 / no-strict-cbr / qg-size=32 / no-rc-grain / qpmax=69 / qpmin=0 / no-const-vbv / sar=1 / overscan=0 / videoformat=5 / range=0 / colorprim=1 / transfer=1 / colormatrix=1 / chromaloc=0 / display-window=0 / max-cll=0,0 / min-luma=0 / max-luma=1023 / log2-max-poc-lsb=8 / vui-timing-info / vui-hrd-info / slices=1 / no-opt-qp-pps / no-opt-ref-list-length-pps / no-multi-pass-opt-rps / scenecut-bias=0.05 / no-opt-cu-delta-qp / no-aq-motion / no-hdr / no-hdr-opt / no-dhdr10-opt / no-idr-recovery-sei / analysis-reuse-level=5 / scale-factor=0 / refine-intra=0 / refine-inter=0 / refine-mv=0 / no-limit-sao / ctu-info=0 / no-lowpass-dct / refine-mv-type=0 / copy-pic=1 / max-ausize-factor=1.0 / no-dynamic-refine / no-single-sei
Default : Yes
Forced : No
Color range : Limited
Color primaries : BT.709
Transfer characteristics : BT.709
Matrix coefficients : BT.709

Audio #1
ID : 2
Format : E-AC-3
Format/Info : Enhanced AC-3
Commercial name : Dolby Digital Plus
Codec ID : A_EAC3
Duration : 1 h 49 min
Bit rate mode : Constant
Bit rate : 448 kb/s
Channel(s) : 6 channels
Channel layout : L R C LFE Ls Rs
Sampling rate : 48.0 kHz
Frame rate : 31.250 FPS (1536 SPF)
Compression mode : Lossy
Delay relative to video : 24 ms
Stream size : 352 MiB (9%)
Title : Français 5.1 EAC3 448kbps 48khz 16bits
Language : French
Service kind : Complete Main
Default : Yes
Forced : No

Audio #2
ID : 3
Format : E-AC-3
Format/Info : Enhanced AC-3
Commercial name : Dolby Digital Plus
Codec ID : A_EAC3
Duration : 1 h 49 min
Bit rate mode : Constant
Bit rate : 448 kb/s
Channel(s) : 6 channels
Channel layout : L R C LFE Ls Rs
Sampling rate : 48.0 kHz
Frame rate : 31.250 FPS (1536 SPF)
Compression mode : Lossy
Stream size : 352 MiB (9%)
Title : Québécois 5.1 EAC3 448kbps 48khz 16bits
Language : French
Service kind : Complete Main
Default : No
Forced : No

Audio #3
ID : 4
Format : E-AC-3
Format/Info : Enhanced AC-3
Commercial name : Dolby Digital Plus
Codec ID : A_EAC3
Duration : 1 h 49 min
Bit rate mode : Constant
Bit rate : 448 kb/s
Channel(s) : 6 channels
Channel layout : L R C LFE Ls Rs
Sampling rate : 48.0 kHz
Frame rate : 31.250 FPS (1536 SPF)
Compression mode : Lossy
Stream size : 352 MiB (9%)
Title : English 5.1 EAC3 448kbps 48khz 16bits
Language : English
Service kind : Complete Main
Default : No
Forced : No

Text #1
ID : 5
Format : UTF-8
Codec ID : S_TEXT/UTF8
Codec ID/Info : UTF-8 Plain Text
Duration : 1 h 49 min
Bit rate : 1 b/s
Count of elements : 26
Stream size : 1.44 KiB (0%)
Title : Français forcé (Passages)
Language : French
Default : Yes
Forced : Yes

Text #2
ID : 6
Format : UTF-8
Codec ID : S_TEXT/UTF8
Codec ID/Info : UTF-8 Plain Text
Duration : 1 h 49 min
Bit rate : 34 b/s
Count of elements : 889
Stream size : 28.0 KiB (0%)
Title : Français complet (Tous le film)
Language : French
Default : No
Forced : No

Text #3
ID : 7
Format : PGS
Muxing mode : zlib
Codec ID : S_HDMV/PGS
Codec ID/Info : Picture based subtitle format used on BDs/HD-DVDs
Duration : 55 min 46 s
Bit rate : 1 495 b/s
Count of elements : 66
Stream size : 611 KiB (0%)
Title : Français forcé (Passages) PGS
Language : French
Default : No
Forced : Yes

Text #4
ID : 8
Format : PGS
Muxing mode : zlib
Codec ID : S_HDMV/PGS
Codec ID/Info : Picture based subtitle format used on BDs/HD-DVDs
Duration : 1 h 49 min
Bit rate : 19.2 kb/s
Count of elements : 1785
Stream size : 15.0 MiB (0%)
Title : Français complet (Tous le film) PGS
Language : French
Default : No
Forced : No

Text #5
ID : 9
Format : PGS
Muxing mode : zlib
Codec ID : S_HDMV/PGS
Codec ID/Info : Picture based subtitle format used on BDs/HD-DVDs
Duration : 55 min 46 s
Bit rate : 1 541 b/s
Count of elements : 37
Stream size : 630 KiB (0%)
Title : Québécois forcé (Passages) PGS
Language : French
Default : No
Forced : Yes

Text #6
ID : 10
Format : PGS
Muxing mode : zlib
Codec ID : S_HDMV/PGS
Codec ID/Info : Picture based subtitle format used on BDs/HD-DVDs
Duration : 1 h 49 min
Bit rate : 27.3 kb/s
Count of elements : 1651
Stream size : 21.3 MiB (1%)
Title : Québécois Sourds&Malentendants PGS
Language : French
Default : No
Forced : No

Text #7
ID : 11
Format : PGS
Muxing mode : zlib
Codec ID : S_HDMV/PGS
Codec ID/Info : Picture based subtitle format used on BDs/HD-DVDs
Duration : 1 h 44 min
Bit rate : 22.8 kb/s
Count of elements : 1510
Stream size : 17.0 MiB (0%)
Title : English full SDH PGS
Language : English
Default : No
Forced : No

Menu
00:00:00.000 : :01 - 00:00:00
00:03:56.407 : :02 - 00:03:56
00:06:09.207 : :03 - 00:06:09
00:09:27.491 : :04 - 00:09:27
00:14:50.439 : :05 - 00:14:50
00:20:30.988 : :06 - 00:20:30
00:25:04.303 : :07 - 00:25:04
00:29:47.461 : :08 - 00:29:47
00:34:51.724 : :09 - 00:34:51
00:41:15.774 : :10 - 00:41:15
00:46:36.720 : :11 - 00:46:36
00:54:00.623 : :12 - 00:54:00
01:05:33.023 : :13 - 01:05:33
01:10:14.972 : :14 - 01:10:14
01:17:30.991 : :15 - 01:17:30
01:21:51.043 : :16 - 01:21:51
01:33:52.890 : :17 - 01:33:52
01:44:57.096 : :18 - 01:44:57



Download torrent
3.8 GB
seeders:13
leechers:3
Automata 2014 BR EAC3 VFF VFQ ENG 1080p x265 10Bits T0M (Autómata)


Trackers

tracker name
udp://tracker.opentrackr.org:1337/announce
http://tracker3.itzmx.com:8080/announce
udp://tracker.coppersurfer.tk:6969/announce
udp://tracker.cyberia.is:6969/announce
udp://tracker.tiny-vps.com:6969/announce
udp://opentor.org:2710
udp://tracker.ds.is:6969/announce
udp://ipv4.tracker.harry.lu:80/announce
udp://tracker.leechers-paradise.org:6969
udp://tracker.moeking.me:6969/announce
udp://tracker.uw0.xyz:6969/announce
http://explodie.org:6969/announce
udp://retracker.lanta-net.ru:2710/announce
http://jsb.by:8000/announce
http://retracker.sevstar.net:2710/announce
µTorrent compatible trackers list

Download torrent
3.8 GB
seeders:13
leechers:3
Automata 2014 BR EAC3 VFF VFQ ENG 1080p x265 10Bits T0M (Autómata)


Torrent hash: 2F19DAFB335DA7BBC24005F1D4E3BA9A38942294