12 Monkeys 1995 Bonus BR EAC3 VFF VFQ ENG 1080p x265 10Bits T0M (L'armée des 12 singes, Twelve Monkeys)

seeders: 9
leechers: 9
updated:
Added by T0M4 in Movies > HEVC/x265

Download Fast Safe Anonymous
movies, software, shows...
Summary:

In the year 2035, convict James Cole (Bruce Willis) reluctantly volunteers to be sent back in time to discover the origin of a deadly virus that wiped out nearly all of the earth's population and forced the survivors into underground communities. But when Cole is mistakenly sent to 1990 instead of 1996, he's arrested and locked up in a mental hospital. There he meets psychiatrist Dr. Kathryn Railly (Madeleine Stowe), and patient Jeffrey Goines (Brad Pitt), the son of a famous virus expert, who may hold the key to the mysterious rogue group, the Army of the 12 Monkeys, thought to be responsible for unleashing the killer disease.

Files

12 Monkeys 1995 Bonus BR EAC3 VFF VFQ VO 1080p x265 10Bits T0M
  • 12 Monkeys 1995 Bonus - Bluray Looping MUSIQUE.mkv (9.1 MB)
  • 12 Monkeys 1995 Bonus - Bluray Opening MUSIQUE.mkv (9.9 MB)
  • 12 Monkeys 1995 Bonus - Photo MUET.mkv (31.3 MB)
  • 12 Monkeys 1995 Bonus - Teaser VOSTFR.mkv (9.9 MB)
  • 12 Monkeys 1995 Bonus - The Hamster Factor VOSTFR.mkv (504.5 MB)
  • 12 Monkeys 1995 BR EAC3 VFF VFQ VO 1080p x265 10Bits T0M.mkv (4.3 GB)
  • 12 Monkeys 1995.nfo (54.4 KB)
  • 12 Monkeys 1995.sfv (0.4 KB)

Description


______________________________________________________________________________________________________________
Twelve Monkeys 1995
Bluray · 1080p x265 10bits · DD+ 5.1 VFF VFQ ENG
More Bonus
¯¯¯¯¯¯¯¯¯¯¯¯¯¯¯¯¯¯¯¯¯¯¯¯¯¯¯¯¯¯¯¯¯¯¯¯¯¯¯¯¯¯¯¯¯¯¯¯¯¯¯¯¯¯¯¯¯¯¯¯¯¯¯¯¯¯¯¯¯¯¯¯¯¯¯¯¯¯¯¯



Year : 1995
Country : United States
Original and English Title : Twelve Monkeys
French Title : L'armée des 12 singes
Quebec Title : 12 Singes
Director : Terry Gilliam
Music from : Paul Buckmaster
Acteurs : Bruce Willis, Madeleine Stowe, Brad Pitt, Christopher Plummer, Frank Gorshin, Jon Seda, Ernest Abuba, Bill Raymond
Simon Jones, Bob Adrian, Carol Florence, H. Michael Walls, David Morse
Genre : Sci-Fi, Drama, Thriller
Certificate : All public
Budget : 29 000 000 $ · Recipe : 168 839 459 $ · ratio : 582 %
Link : Allociné 4,1 /5 · IMDB 8,0 /10 · TMDB 75 % · SensCritique 7,8 /10 · Wiki · Bande Annonce

French Plot
Nous sommes en l'an 2035 . Les quelques milliers d'habitants qui restent sur notre planète sont contraints de vivre sous terre . La surface du globe est devenue inhabitable à la suite d'un virus ayant décimé 99% de la population . Les survivants mettent tous leurs espoirs dans un voyage à travers le temps pour découvrir les causes de la catastrophe et la prévenir. C'est James Cole , hanté depuis des années par une image incompréhensible, qui est désigné pour cette mission .
Librement adapté du court métrage : La Jetée, de Chris Marker (1962)

Bonus
Bluray Looping - 1 mn - 9,12 Mib - 1920x1080 HEVC 10Bits - VO - 3a02e5ea
Bluray Opening - 1 mn - 9,87 Mib - 1920x1080 HEVC 10Bits - VO - f563e3cc
Photo - 3 mn - 31,30 Mib - 1920x1080 MPEG Video 8Bits - MUET - 68ddfddf
Teaser - 2 mn - 9,86 Mib - 720x480 HEVC 10Bits - VOSTFR - 8fb09cd5
The Hamster Factor - 1 h27 mn - 505,0 Mib - 720x480 HEVC 10Bits - VOSTFR - c6550d2e
5 bonus, total 565,1 Mib 1 h35 mn

Saga
The Movie : Twelve Monkeys (L'armée des 12 singes) 1995 + Bonus
Season 1 : 2015 (13 episodes)
Season 2 : 2016 (13 episodes)


If you enjoy and wish to support, please stay in seeding

Technical Details
¯¯¯¯¯¯¯¯¯¯¯¯¯¯¯¯¯¯¯¯¯¯¯¯¯¯¯¯¯¯¯¯¯¯¯¯¯¯¯¯¯¯¯¯¯¯¯¯¯¯¯¯¯¯¯¯¯¯¯¯¯¯¯¯¯¯¯¯¯¯¯¯¯¯¯¯¯¯¯¯¯¯¯¯¯¯¯¯¯¯¯¯¯¯¯¯¯¯¯¯
Media
Matroska 4,33 Gio 2 h09 mn 4786 Kbps, Total 4,88 Gio 3 h44 mn
Video
HEVC/H265 1920 x1040 @23.976 [email protected]@Main 10 bits 3178 Kbps VerySlow
Audio
True French 5.1 EAC3 448 Kbps 48KHz 16bits
Quebec French 5.1 EAC3 448 Kbps 48KHz 16bits
English (OV) 5.1 EAC3 448 Kbps 48KHz 16bits
English Commentary by Terry Gilliam and Chuck Roven 2.0 EAC3 192 Kbps 48KHz 16bits
Subtitles
True French forced SRT
True French full SRT
True French full PGS
Quebec French forced PGS
Quebec French full PGS
English full SDH PGS
English Commentary by Terry Gilliam and Chuck Roven PGS
Chapters
International, True French, English
Screenshot

Origin
Bluray : Video VC-1 1080p 29389 Kbps, VFF 5.1 DTS-HDMA 2048 Kbps, VFQ 5.1 DTS 768 Kbps, Anglais 5.1 DTS-HDMA 4192 Kbps

NFO
¯¯¯¯¯¯¯¯¯¯¯¯¯¯¯¯¯¯¯¯¯¯¯¯¯¯¯¯¯¯¯¯¯¯¯¯¯¯¯¯¯¯¯¯¯¯¯¯¯¯¯¯¯¯¯¯¯¯¯¯¯¯¯¯¯¯¯¯¯¯¯¯¯¯¯¯¯¯¯¯¯¯¯¯¯¯¯¯¯¯¯¯¯¯¯¯¯¯¯¯


General
Format : Matroska
Format version : Version 4 / Version 2
File size : 4.33 GiB
Duration : 2 h 9 min
Overall bit rate : 4 786 kb/s
Movie name : L'armée des 12 singes (Twelve Monkeys) 1995 de Terry Gilliam avec Bruce Willis, Madeleine Stowe, Brad Pitt, Christopher Plummer, Frank Gorshin, Jon Seda, Ernest Abuba, Bill Raymond, Simon Jones, Bob Adrian, Carol Florence, H. Michael Walls, David Morse. Tout public (allocine=29757,imdb=tt0114746) T0M
Encoded date : UTC 2018-04-03 11:38:18
Writing application : mkvmerge v8.0.0 ('Til The Day That I Die') 64bit
Writing library : libebml v1.3.1 + libmatroska v1.4.2
Cover : Yes
Attachments : Cover.jpg / Cover2.jpg

Video
ID : 1
Format : HEVC
Format/Info : High Efficiency Video Coding
Format profile : Main [email protected]@Main
Codec ID : V_MPEGH/ISO/HEVC
Duration : 2 h 9 min
Bit rate : 3 178 kb/s
Width : 1 920 pixels
Height : 1 040 pixels
Display aspect ratio : 1.85:1
Frame rate mode : Constant
Frame rate : 23.976 (24000/1001) FPS
Color space : YUV
Chroma subsampling : 4:2:0
Bit depth : 10 bits
Bits/(Pixel*Frame) : 0.066
Stream size : 2.88 GiB (66%)
Title : Video HEVC 1920x1040 @23.976 x265 [email protected]@Main 10bits veryslow 2478mn
Writing library : x265 1.9:[Windows][GCC 4.9.2][64 bit] 10bit
Encoding settings : wpp / ctu=64 / min-cu-size=8 / max-tu-size=32 / tu-intra-depth=3 / tu-inter-depth=3 / me=3 / subme=4 / merange=57 / rect / amp / max-merge=4 / temporal-mvp / no-early-skip / rdpenalty=0 / no-tskip / no-tskip-fast / strong-intra-smoothing / no-lossless / no-cu-lossless / no-constrained-intra / no-fast-intra / open-gop / no-temporal-layers / interlace=0 / keyint=240 / min-keyint=24 / scenecut=40 / rc-lookahead=40 / lookahead-slices=0 / bframes=8 / bframe-bias=0 / b-adapt=2 / ref=5 / limit-refs=1 / limit-modes / weightp / weightb / aq-mode=1 / qg-size=32 / aq-strength=1.00 / cbqpoffs=0 / crqpoffs=0 / rd=6 / psy-rd=2.00 / rdoq-level=2 / psy-rdoq=1.00 / signhide / deblock / sao / no-sao-non-deblock / b-pyramid / cutree / no-intra-refresh / rc=crf / crf=21.0 / qcomp=0.60 / qpmin=0 / qpmax=51 / qpstep=4 / ipratio=1.40 / pbratio=1.30
Default : Yes
Forced : No
Color range : Limited
Color primaries : BT.709
Transfer characteristics : BT.709
Matrix coefficients : BT.709

Audio #1
ID : 2
Format : E-AC-3
Format/Info : Enhanced Audio Coding 3
Codec ID : A_EAC3
Duration : 2 h 9 min
Bit rate mode : Constant
Bit rate : 448 kb/s
Channel(s) : 6 channels
Channel positions : Front: L C R, Side: L R, LFE
Sampling rate : 48.0 kHz
Frame rate : 187.500 FPS (256 SPF)
Compression mode : Lossy
Delay relative to video : -73 ms
Stream size : 415 MiB (9%)
Title : Français 5.1 EAC3 448kbps 48khz 16bits
Language : French
Service kind : Complete Main
Default : Yes
Forced : No

Audio #2
ID : 3
Format : E-AC-3
Format/Info : Enhanced Audio Coding 3
Codec ID : A_EAC3
Duration : 2 h 9 min
Bit rate mode : Constant
Bit rate : 448 kb/s
Channel(s) : 6 channels
Channel positions : Front: L C R, Side: L R, LFE
Sampling rate : 48.0 kHz
Frame rate : 187.500 FPS (256 SPF)
Compression mode : Lossy
Delay relative to video : -41 ms
Stream size : 415 MiB (9%)
Title : Québécois 5.1 EAC3 448kbps 48khz 16bits
Language : French
Service kind : Complete Main
Default : No
Forced : No

Audio #3
ID : 4
Format : E-AC-3
Format/Info : Enhanced Audio Coding 3
Codec ID : A_EAC3
Duration : 2 h 9 min
Bit rate mode : Constant
Bit rate : 448 kb/s
Channel(s) : 6 channels
Channel positions : Front: L C R, Side: L R, LFE
Sampling rate : 48.0 kHz
Frame rate : 187.500 FPS (256 SPF)
Compression mode : Lossy
Delay relative to video : -41 ms
Stream size : 415 MiB (9%)
Title : English 5.1 EAC3 448kbps 48khz 16bits
Language : English
Service kind : Complete Main
Default : No
Forced : No

Audio #4
ID : 5
Format : E-AC-3
Format/Info : Enhanced Audio Coding 3
Codec ID : A_EAC3
Duration : 2 h 9 min
Bit rate mode : Constant
Bit rate : 192 kb/s
Channel(s) : 2 channels
Channel positions : Front: L R
Sampling rate : 48.0 kHz
Frame rate : 187.500 FPS (256 SPF)
Compression mode : Lossy
Delay relative to video : -41 ms
Stream size : 178 MiB (4%)
Title : English comment by Terry Gilliam and Chuck Roven 2.0 EAC3 192kbps 48khz 16bits
Language : English
Service kind : Complete Main
Default : No
Forced : No

Text #1
ID : 6
Format : UTF-8
Codec ID : S_TEXT/UTF8
Codec ID/Info : UTF-8 Plain Text
Duration : 2 h 9 min
Bit rate : 3 b/s
Count of elements : 85
Stream size : 3.02 KiB (0%)
Title : Français forcé (Passages)
Language : French
Default : Yes
Forced : Yes

Text #2
ID : 7
Format : UTF-8
Codec ID : S_TEXT/UTF8
Codec ID/Info : UTF-8 Plain Text
Duration : 2 h 9 min
Bit rate : 74 b/s
Count of elements : 1810
Stream size : 70.3 KiB (0%)
Title : Français complet (Tous le film)
Language : French
Default : No
Forced : No

Text #3
ID : 8
Format : PGS
Muxing mode : zlib
Codec ID : S_HDMV/PGS
Codec ID/Info : Picture based subtitle format used on BDs/HD-DVDs
Duration : 2 h 7 min
Bit rate : 12.8 kb/s
Count of elements : 3624
Stream size : 11.7 MiB (0%)
Title : Français complet (Tous le film) PGS
Language : French
Default : No
Forced : No

Text #4
ID : 9
Format : PGS
Muxing mode : zlib
Codec ID : S_HDMV/PGS
Codec ID/Info : Picture based subtitle format used on BDs/HD-DVDs
Duration : 1 h 57 min
Bit rate : 234 b/s
Count of elements : 53
Stream size : 202 KiB (0%)
Title : Québécois forcé (Passages) PGS
Language : French
Default : No
Forced : No

Text #5
ID : 10
Format : PGS
Muxing mode : zlib
Codec ID : S_HDMV/PGS
Codec ID/Info : Picture based subtitle format used on BDs/HD-DVDs
Duration : 2 h 7 min
Bit rate : 12.8 kb/s
Count of elements : 3624
Stream size : 11.7 MiB (0%)
Title : Québécois complet (Tous le film) PGS
Language : French
Default : No
Forced : No

Text #6
ID : 11
Format : PGS
Muxing mode : zlib
Codec ID : S_HDMV/PGS
Codec ID/Info : Picture based subtitle format used on BDs/HD-DVDs
Duration : 2 h 6 min
Bit rate : 14.5 kb/s
Count of elements : 3926
Stream size : 13.2 MiB (0%)
Title : English full SDH PGS
Language : English
Default : No
Forced : No

Text #7
ID : 12
Format : PGS
Muxing mode : zlib
Codec ID : S_HDMV/PGS
Codec ID/Info : Picture based subtitle format used on BDs/HD-DVDs
Duration : 2 h 9 min
Bit rate : 25.4 kb/s
Count of elements : 4476
Stream size : 23.6 MiB (1%)
Title : English comment by Terry Gilliam and Chuck Roven
Language : English
Default : No
Forced : No

Menu
00:00:00.000 : :01 - 00:00:00 - fr:Le Volontaire - en:The Volunteer (Main Titles)
00:08:34.889 : :02 - 00:08:34 - fr:Une Occasion - en:An Opportunity
00:10:58.366 : :03 - 00:10:58 - fr:Baltimore - Avril 1990 - en:Baltimore - April 1990
00:16:39.331 : :04 - 00:16:39 - fr:La visite de l'hôpital psychiatrique - en:The Deluxe Mental Hospital Tour
00:21:29.871 : :05 - 00:21:29 - fr:Le mauvais moment - en:The Wrong Time
00:25:23.897 : :06 - 00:25:23 - fr:Colonics pour Tout le monde! - en:Colonics for Everyone!
00:29:27.265 : :07 - 00:29:27 - fr:Affaires de singe - en:Monkey Business
00:32:46.089 : :08 - 00:32:46 - fr:Émancipation - en:Emancipation
00:36:30.271 : :09 - 00:36:30 - fr:Mauvais jugement - en:Bad Judgment
00:37:55.773 : :10 - 00:37:55 - fr:Ce n'est pas une science exacte - en:Science Ain't an Exact Science
00:40:00.606 : :11 - 00:40:00 - fr:Une autre chance - en:Another Chance
00:42:06.232 : :12 - 00:42:06 - fr:Directement sur l'Argent - en:Right on the Money
00:44:45.140 : :13 - 00:44:45 - fr:Baltimore - Novembre 1996 - en:Baltimore - November 1996
00:47:46.405 : :14 - 00:47:46 - fr:Philadelphie - en:It's In Philadelphia
00:53:47.849 : :15 - 00:53:47 - fr:Le même rêve - en:The Same Dream
00:57:13.471 : :16 - 00:57:13 - fr:La mission de Cole - en:Cole's Mission
00:58:50.151 : :17 - 00:58:50 - fr:Ils sont Ici ! - en:They're Here!
01:01:20.677 : :18 - 01:01:20 - fr:Tout ce que je vois, ce sont des morts... - en:All I See Are Dead People...
01:03:24.467 : :19 - 01:03:24 - fr:Les activistes animaliers - en:The Animal Activists
01:06:33.030 : :20 - 01:06:33 - fr:Après Jeffery - en:Going After Jeffery
01:10:06.744 : :21 - 01:10:06 - fr:La menace usée par le temps - en:The Timeworn Threat
01:15:50.796 : :22 - 01:15:50 - fr:C'Était mon idée ? - en:It Was My Idea?
01:18:27.994 : :23 - 01:18:27 - fr:La réaction normale - en:The Normal Reaction
01:21:05.235 : :24 - 01:21:05 - fr:Tu es ma folie - en:You Are My Insanity
01:23:42.976 : :25 - 01:23:42 - fr:Dites-moi ce que je veux ... - en:Tell Me What I Want...
01:25:14.275 : :26 - 01:25:14 - fr:L'homme en photo - en:The Man in the Picture
01:26:37.358 : :27 - 01:26:37 - fr:Ce qui est Réel et Ce qui n'est pas - en:What's Real and What's Not
01:29:04.547 : :28 - 01:29:04 - fr:La progression du Virus - en:The Path of the Virus
01:31:33.279 : :29 - 01:31:33 - fr:Divergence mentale - en:Mentally Divergent
01:32:39.262 : :30 - 01:32:39 - fr:Sérieusement fou - en:Seriously Crazy
01:35:04.573 : :31 - 01:35:04 - fr:Je veux rester ici... - en:I Want to Stay Here...
01:39:24.792 : :32 - 01:39:24 - fr:Un souteneur et un dentiste complètement cinglé - en:The Pimp and the Crazy Dentist
01:41:40.511 : :33 - 01:41:40 - fr:Le message - en:The Message
01:44:33.392 : :34 - 01:44:33 - fr:Le singe parle - en:The Monkey Speaks
01:46:33.678 : :35 - 01:46:33 - fr:Le film ne change jamais - en:The Movie Never Changes
01:49:20.428 : :36 - 01:49:20 - fr:C'était toujours toi... - en:It Was Always You...
01:50:58.068 : :37 - 01:50:58 - fr:L'armée des 12 singes - en:The Army of the Twelve Monkeys Factor
01:52:48.887 : :38 - 01:52:48 - fr:C'est mon rêve - en:This Is My Dream
01:54:31.364 : :39 - 01:54:31 - fr:Quelqu'un d'autre - en:Someone Else
01:56:33.361 : :40 - 01:56:33 - fr:Vous pouvez toujours être un héros - en:You Can Still Be a Hero
01:59:07.014 : :41 - 01:59:07 - fr:Il n'a même pas d'Oder ... - en:It Doesn't Even Have an Oder...
02:01:21.565 : :42 - 02:01:21 - fr:Cercle complet - en:Full Circle
02:04:13.237 : :43 - 02:04:13 - fr:Assurance - en:Insurance
02:05:32.608 : :44 - 02:05:32 - fr:Titres finaux - en:End Titles

Related Torrents

torrent name size uploader age seed leech
6.2 GB QxR 2
years
47 33
1.1 GB cUploader221 9
months
40 28
11.1 GB UTRCorp 1
year
21 4
13.1 GB Trige 2
years
18 18
3.8 GB AlienMethod 5
years
16 1


Download torrent
4.9 GB
seeders:9
leechers:9
12 Monkeys 1995 Bonus BR EAC3 VFF VFQ ENG 1080p x265 10Bits T0M (L'armée des 12 singes, Twelve Monkeys)


Trackers

tracker name
udp://tracker.opentrackr.org:1337/announce
http://tracker3.itzmx.com:8080/announce
udp://tracker.coppersurfer.tk:6969/announce
udp://tracker.cyberia.is:6969/announce
udp://tracker.tiny-vps.com:6969/announce
udp://opentor.org:2710
udp://tracker.ds.is:6969/announce
udp://ipv4.tracker.harry.lu:80/announce
udp://tracker.leechers-paradise.org:6969
udp://tracker.moeking.me:6969/announce
udp://tracker.uw0.xyz:6969/announce
http://explodie.org:6969/announce
udp://retracker.lanta-net.ru:2710/announce
http://jsb.by:8000/announce
http://retracker.sevstar.net:2710/announce
µTorrent compatible trackers list

Download torrent
4.9 GB
seeders:9
leechers:9
12 Monkeys 1995 Bonus BR EAC3 VFF VFQ ENG 1080p x265 10Bits T0M (L'armée des 12 singes, Twelve Monkeys)


Torrent hash: ACD957848C1622026019E76309E5EE8AAC4E36AD